| 首页 | 高清电影 | 最新公告 | 高清播放机 | 代拷硬盘 | 会员专区 | 联系方式 | 付款方式 | 服务条款 | 设为首页 | 收藏本站 | 



查看影片 433-07-哥斯拉大战金刚2:帝国崛起 哥吉拉与金刚:新帝国(台)哥斯拉×金刚:新帝国(港) [内封中字] [Dolby Vision版兼容HDR10+和HDR10] mkv(20.2GB)[动作科幻冒险 2024年 美国]() 详细信息介绍
影片类型
动作 科幻 冒险 4K极致影音 杜比视界
影片属性
4K 电影 杜比视界
影片编号
433-07
IMDB评分
0
首映日期
影片片源
4K极致影音,欧美
文件格式
MKV
分辨率
3840*2160P
视频编码
音频编码
E-AC-3
容量大小
20.2GB
出品年代
2024
字幕
中文/多国
支持PS3
不支持PS3
碟数
1碟
更新日期
2024-5-16
人气
0
影片画质
对白语言
影片评分
备注信息
影片预览
影片简介

哥斯拉大战金刚2:帝国崛起/哥吉拉与金刚:新帝国(台)/哥斯拉×金刚:新帝国(港) [内封中字] [Dolby Vision版兼容HDR10+和HDR10]

 

◎译  名 哥斯拉大战金刚2:帝国崛起/Godzilla and Kong/Godzilla vs Kong: The New Empire/Godzilla vs. Kong 2/ゴジラxコング 新たなる帝国/哥吉拉与金刚:新帝国(台)/哥斯拉×金刚:新帝国(港)/哥斯拉大战金刚2/金刚之子
◎片  名 Godzilla x Kong: The New Empire
◎年  代 2024
◎产  地 美国
◎类  别 动作 / 科幻 / 冒险
◎语  言 英语,美国手语
◎上映日期 2024-03-27(中国台湾) / 2024-03-29(美国/中国大陆)
◎IMDb评分  6.4/10 from 48445 users
◎IMDb链接  https://www.imdb.com/title/tt14539740/
◎豆瓣评分 6.7/10 from 133325 users
◎豆瓣链接 https://movie.douban.com/subject/35453251/
◎片  长 115分钟
◎导  演 亚当·温加德 Adam Wingard
◎编  剧 特里·鲁西奥 Terry Rossio / 西蒙·巴雷特 Simon Barrett / 杰瑞米·斯莱特 Jeremy Slater / 亚当·温加德 Adam Wingard
◎主  演 丽贝卡·豪尔 Rebecca Hall
       布莱恩·泰里·亨利 Brian Tyree Henry
       丹·史蒂文斯 Dan Stevens
       凯莉·霍特尔 Kaylee Hottle
       亚历克斯·费恩斯 Alex Ferns
       陈法拉 Fala Chen
       瑞切尔·豪斯 Rachel House
       朗·斯迈克 Ron Smyck
       尚特尔·贾米森 Chantelle Jamieson
       格雷格·哈顿 Greg Hatton
       凯文·科普兰 Kevin Copeland
       泰丝·多布雷 Tess Dobré
       蒂姆·卡罗尔 Tim Carroll
       安东尼·布兰登·黄 Anthony Brandon Wong
       索菲亚·恩博森-贝恩 Sophia Emberson-Bain
       奇卡·伊科维 Chika Ikogwe
       文森特·B·戈尔斯 Vincent B. Gorce
       叶叶·周 Yeye Zhou
       贾马利亚·欧斯曼 Jamaliah Othman
       尼克·劳勒 Nick Lawler
       梅西·康沃尔 Mercy Cornwall
       卡西·莱利 Cassie Riley
       乔迪·坎贝尔 Jordy Campbell
       妮可拉·克里萨 Nicola Crisa
        Stephanie Puggioni
        Angie Adler-Koops
        Olivia Simatovic
        Drew Matthews
        Kyle Clark
        Alex Time
        Jacob Hohua
        Riley McCarthy

◎简  介

  继上一次的怪兽高燃对战之后,金刚和哥斯拉将再度联手对抗一个潜伏在世界中的巨大威胁,并逐步探索这些巨兽们的起源以及骷髅岛等地的奥秘。同时,上古之战的面纱也将会被揭晓,而正是那场战斗创造出了这些超凡的生物,并深刻影响了人类世界的命运。

 


引用

General
Unique ID                                : 121620757335678825772546527388966990899 (0x5B7F4E4B9B99F1F78A825DB638963433)
Complete name                            : Godzilla.x.Kong.The.New.Empire.2024.2160p.WEB-DL.DDP5.1.Atmos.DV.HDR.H.265-XEBEC.mkv
Format                                   : Matroska
Format version                           : Version 4
File size                                : 20.3 GiB
Duration                                 : 1 h 54 min
Overall bit rate                         : 25.3 Mb/s
Frame rate                               : 23.976 FPS
Encoded date                             : 2024-05-15 10:34:43 UTC
Writing application                      : mkvmerge v84.0 ('Sleeper') 64-bit
Writing library                          : libebml v1.4.5 + libmatroska v1.7.1

Video
ID                                       : 1
Format                                   : HEVC
Format/Info                              : High Efficiency Video Coding
Format profile                           : Main 10@L5@High
HDR format                               : Dolby Vision, Version 1.0, Profile 8.1, dvhe.08.06, BL+RPU, no metadata compression, HDR10 compatible / SMPTE ST 2094 App 4, Version HDR10+ Profile B, HDR10+ Profile B compatible
Codec ID                                 : V_MPEGH/ISO/HEVC
Duration                                 : 1 h 54 min
Bit rate                                 : 24.5 Mb/s
Width                                    : 3 840 pixels
Height                                   : 1 606 pixels
Display aspect ratio                     : 2.39:1
Frame rate mode                          : Constant
Frame rate                               : 23.976 FPS
Color space                              : YUV
Chroma subsampling                       : 4:2:0 (Type 2)
Bit depth                                : 10 bits
Bits/(Pixel*Frame)                       : 0.166
Stream size                              : 19.6 GiB (97%)
Default                                  : Yes
Forced                                   : No
Color range                              : Limited
Color primaries                          : BT.2020
Transfer characteristics                 : PQ
Matrix coefficients                      : BT.2020 non-constant
Mastering display color primaries        : BT.2020
Mastering display luminance              : min: 0.0050 cd/m2, max: 1000 cd/m2
Maximum Content Light Level              : 1170 cd/m2
Maximum Frame-Average Light Level        : 973 cd/m2

Audio
ID                                       : 2
Format                                   : E-AC-3 JOC
Format/Info                              : Enhanced AC-3 with Joint Object Coding
Commercial name                          : Dolby Digital Plus with Dolby Atmos
Codec ID                                 : A_EAC3
Duration                                 : 1 h 54 min
Bit rate mode                            : Constant
Bit rate                                 : 768 kb/s
Channel(s)                               : 6 channels
Channel layout                           : L R C LFE Ls Rs
Sampling rate                            : 48.0 kHz
Frame rate                               : 31.250 FPS (1536 SPF)
Compression mode                         : Lossy
Stream size                              : 630 MiB (3%)
Title                                    : English
Language                                 : English
Service kind                             : Complete Main
Default                                  : Yes
Forced                                   : No
Complexity index                         : 16
Number of dynamic objects                : 15
Bed channel count                        : 1 channel
Bed channel configuration                : LFE
Dialog Normalization                     : -25 dB
compr                                    : -0.28 dB
dialnorm_Average                         : -25 dB
dialnorm_Minimum                         : -25 dB
dialnorm_Maximum                         : -25 dB

Text #1
ID                                       : 3
Format                                   : UTF-8
Codec ID                                 : S_TEXT/UTF8
Codec ID/Info                            : UTF-8 Plain Text
Duration                                 : 1 h 54 min
Bit rate                                 : 53 b/s
Frame rate                               : 0.241 FPS
Count of elements                        : 1656
Stream size                              : 44.4 KiB (0%)
Title                                    : CC
Language                                 : English (US)
Default                                  : Yes
Forced                                   : No

Text #2
ID                                       : 4
Format                                   : UTF-8
Codec ID                                 : S_TEXT/UTF8
Codec ID/Info                            : UTF-8 Plain Text
Duration                                 : 1 h 53 min
Bit rate                                 : 47 b/s
Frame rate                               : 0.114 FPS
Count of elements                        : 775
Stream size                              : 39.7 KiB (0%)
Title                                    : Arabic
Language                                 : Arabic
Default                                  : No
Forced                                   : No

Text #3
ID                                       : 5
Format                                   : UTF-8
Codec ID                                 : S_TEXT/UTF8
Codec ID/Info                            : UTF-8 Plain Text
Duration                                 : 1 h 53 min
Bit rate                                 : 48 b/s
Frame rate                               : 0.114 FPS
Count of elements                        : 778
Stream size                              : 40.6 KiB (0%)
Title                                    : Bulgarian
Language                                 : Bulgarian
Default                                  : No
Forced                                   : No

Text #4
ID                                       : 6
Format                                   : UTF-8
Codec ID                                 : S_TEXT/UTF8
Codec ID/Info                            : UTF-8 Plain Text
Duration                                 : 1 h 53 min
Bit rate                                 : 29 b/s
Frame rate                               : 0.113 FPS
Count of elements                        : 769
Stream size                              : 24.4 KiB (0%)
Title                                    : Czech
Language                                 : Czech
Default                                  : No
Forced                                   : No

Text #5
ID                                       : 7
Format                                   : UTF-8
Codec ID                                 : S_TEXT/UTF8
Codec ID/Info                            : UTF-8 Plain Text
Duration                                 : 1 h 53 min
Bit rate                                 : 26 b/s
Frame rate                               : 0.078 FPS
Count of elements                        : 529
Stream size                              : 21.7 KiB (0%)
Title                                    : Danish
Language                                 : Danish
Default                                  : No
Forced                                   : No

Text #6
ID                                       : 8
Format                                   : UTF-8
Codec ID                                 : S_TEXT/UTF8
Codec ID/Info                            : UTF-8 Plain Text
Duration                                 : 1 h 54 min
Bit rate                                 : 49 b/s
Frame rate                               : 0.175 FPS
Count of elements                        : 1202
Stream size                              : 41.3 KiB (0%)
Title                                    : German (SDH)
Language                                 : German (DE)
Default                                  : No
Forced                                   : No

Text #7
ID                                       : 9
Format                                   : UTF-8
Codec ID                                 : S_TEXT/UTF8
Codec ID/Info                            : UTF-8 Plain Text
Duration                                 : 1 h 53 min
Bit rate                                 : 33 b/s
Frame rate                               : 0.102 FPS
Count of elements                        : 692
Stream size                              : 27.7 KiB (0%)
Title                                    : German
Language                                 : German (DE)
Default                                  : No
Forced                                   : No

Text #8
ID                                       : 10
Format                                   : UTF-8
Codec ID                                 : S_TEXT/UTF8
Codec ID/Info                            : UTF-8 Plain Text
Duration                                 : 1 h 53 min
Bit rate                                 : 51 b/s
Frame rate                               : 0.114 FPS
Count of elements                        : 773
Stream size                              : 42.5 KiB (0%)
Title                                    : Modern Greek (1453-)
Language                                 : Greek
Default                                  : No
Forced                                   : No

Text #9
ID                                       : 11
Format                                   : UTF-8
Codec ID                                 : S_TEXT/UTF8
Codec ID/Info                            : UTF-8 Plain Text
Duration                                 : 1 h 43 min
Bit rate                                 : 2 b/s
Frame rate                               : 0.014 FPS
Count of elements                        : 86
Stream size                              : 2.21 KiB (0%)
Title                                    : Spanish (Forced)
Language                                 : Spanish (Latin America)
Default                                  : No
Forced                                   : Yes

Text #10
ID                                       : 12
Format                                   : UTF-8
Codec ID                                 : S_TEXT/UTF8
Codec ID/Info                            : UTF-8 Plain Text
Duration                                 : 1 h 53 min
Bit rate                                 : 32 b/s
Frame rate                               : 0.114 FPS
Count of elements                        : 776
Stream size                              : 26.7 KiB (0%)
Title                                    : Spanish
Language                                 : Spanish (Latin America)
Default                                  : No
Forced                                   : No

Text #11
ID                                       : 13
Format                                   : UTF-8
Codec ID                                 : S_TEXT/UTF8
Codec ID/Info                            : UTF-8 Plain Text
Duration                                 : 1 h 53 min
Bit rate                                 : 32 b/s
Frame rate                               : 0.119 FPS
Count of elements                        : 808
Stream size                              : 26.7 KiB (0%)
Title                                    : Spanish
Language                                 : Spanish (ES)
Default                                  : No
Forced                                   : No

Text #12
ID                                       : 14
Format                                   : UTF-8
Codec ID                                 : S_TEXT/UTF8
Codec ID/Info                            : UTF-8 Plain Text
Duration                                 : 1 h 44 min
Bit rate                                 : 32 b/s
Frame rate                               : 0.131 FPS
Count of elements                        : 822
Stream size                              : 25.2 KiB (0%)
Title                                    : Estonian
Language                                 : Estonian
Default                                  : No
Forced                                   : No

Text #13
ID                                       : 15
Format                                   : UTF-8
Codec ID                                 : S_TEXT/UTF8
Codec ID/Info                            : UTF-8 Plain Text
Duration                                 : 1 h 53 min
Bit rate                                 : 28 b/s
Frame rate                               : 0.133 FPS
Count of elements                        : 906
Stream size                              : 23.5 KiB (0%)
Title                                    : Finnish
Language                                 : Finnish
Default                                  : No
Forced                                   : No

Text #14
ID                                       : 16
Format                                   : UTF-8
Codec ID                                 : S_TEXT/UTF8
Codec ID/Info                            : UTF-8 Plain Text
Duration                                 : 1 h 43 min
Bit rate                                 : 2 b/s
Frame rate                               : 0.011 FPS
Count of elements                        : 67
Stream size                              : 1.63 KiB (0%)
Title                                    : French (Forced)
Language                                 : French (FR)
Default                                  : No
Forced                                   : Yes

Text #15
ID                                       : 17
Format                                   : UTF-8
Codec ID                                 : S_TEXT/UTF8
Codec ID/Info                            : UTF-8 Plain Text
Duration                                 : 1 h 53 min
Bit rate                                 : 27 b/s
Frame rate                               : 0.120 FPS
Count of elements                        : 820
Stream size                              : 22.5 KiB (0%)
Title                                    : French
Language                                 : French (FR)
Default                                  : No
Forced                                   : No

Text #16
ID                                       : 18
Format                                   : UTF-8
Codec ID                                 : S_TEXT/UTF8
Codec ID/Info                            : UTF-8 Plain Text
Duration                                 : 1 h 53 min
Bit rate                                 : 43 b/s
Frame rate                               : 0.111 FPS
Count of elements                        : 758
Stream size                              : 36.1 KiB (0%)
Title                                    : Hebrew
Language                                 : Hebrew
Default                                  : No
Forced                                   : No

Text #17
ID                                       : 19
Format                                   : UTF-8
Codec ID                                 : S_TEXT/UTF8
Codec ID/Info                            : UTF-8 Plain Text
Duration                                 : 1 h 53 min
Bit rate                                 : 33 b/s
Frame rate                               : 0.122 FPS
Count of elements                        : 829
Stream size                              : 28.1 KiB (0%)
Title                                    : Hungarian
Language                                 : Hungarian
Default                                  : No
Forced                                   : No

Text #18
ID                                       : 20
Format                                   : UTF-8
Codec ID                                 : S_TEXT/UTF8
Codec ID/Info                            : UTF-8 Plain Text
Duration                                 : 1 h 53 min
Bit rate                                 : 34 b/s
Frame rate                               : 0.139 FPS
Count of elements                        : 948
Stream size                              : 28.8 KiB (0%)
Title                                    : Italian (SDH)
Language                                 : Italian (IT)
Default                                  : No
Forced                                   : No

Text #19
ID                                       : 21
Format                                   : UTF-8
Codec ID                                 : S_TEXT/UTF8
Codec ID/Info                            : UTF-8 Plain Text
Duration                                 : 1 h 53 min
Bit rate                                 : 29 b/s
Frame rate                               : 0.114 FPS
Count of elements                        : 776
Stream size                              : 24.8 KiB (0%)
Title                                    : Italian
Language                                 : Italian (IT)
Default                                  : No
Forced                                   : No

Text #20
ID                                       : 22
Format                                   : UTF-8
Codec ID                                 : S_TEXT/UTF8
Codec ID/Info                            : UTF-8 Plain Text
Duration                                 : 1 h 44 min
Bit rate                                 : 29 b/s
Frame rate                               : 0.122 FPS
Count of elements                        : 764
Stream size                              : 22.5 KiB (0%)
Title                                    : Korean
Language                                 : Korean
Default                                  : No
Forced                                   : No

Text #21
ID                                       : 23
Format                                   : UTF-8
Codec ID                                 : S_TEXT/UTF8
Codec ID/Info                            : UTF-8 Plain Text
Duration                                 : 1 h 44 min
Bit rate                                 : 33 b/s
Frame rate                               : 0.132 FPS
Count of elements                        : 826
Stream size                              : 25.6 KiB (0%)
Title                                    : Latvian
Language                                 : Latvian
Default                                  : No
Forced                                   : No

Text #22
ID                                       : 24
Format                                   : UTF-8
Codec ID                                 : S_TEXT/UTF8
Codec ID/Info                            : UTF-8 Plain Text
Duration                                 : 1 h 53 min
Bit rate                                 : 27 b/s
Frame rate                               : 0.091 FPS
Count of elements                        : 617
Stream size                              : 22.7 KiB (0%)
Title                                    : Dutch
Language                                 : Dutch
Default                                  : No
Forced                                   : No

Text #23
ID                                       : 25
Format                                   : UTF-8
Codec ID                                 : S_TEXT/UTF8
Codec ID/Info                            : UTF-8 Plain Text
Duration                                 : 1 h 53 min
Bit rate                                 : 28 b/s
Frame rate                               : 0.092 FPS
Count of elements                        : 624
Stream size                              : 23.6 KiB (0%)
Title                                    : Norwegian
Language                                 : Norwegian
Default                                  : No
Forced                                   : No

Text #24
ID                                       : 26
Format                                   : UTF-8
Codec ID                                 : S_TEXT/UTF8
Codec ID/Info                            : UTF-8 Plain Text
Duration                                 : 1 h 53 min
Bit rate                                 : 27 b/s
Frame rate                               : 0.111 FPS
Count of elements                        : 755
Stream size                              : 22.8 KiB (0%)
Title                                    : Polish
Language                                 : Polish
Default                                  : No
Forced                                   : No

Text #25
ID                                       : 27
Format                                   : UTF-8
Codec ID                                 : S_TEXT/UTF8
Codec ID/Info                            : UTF-8 Plain Text
Duration                                 : 1 h 53 min
Bit rate                                 : 31 b/s
Frame rate                               : 0.114 FPS
Count of elements                        : 773
Stream size                              : 25.9 KiB (0%)
Title                                    : Portuguese
Language                                 : Portuguese (BR)
Default                                  : No
Forced                                   : No

Text #26
ID                                       : 28
Format                                   : UTF-8
Codec ID                                 : S_TEXT/UTF8
Codec ID/Info                            : UTF-8 Plain Text
Duration                                 : 1 h 53 min
Bit rate                                 : 36 b/s
Frame rate                               : 0.114 FPS
Count of elements                        : 774
Stream size                              : 30.0 KiB (0%)
Title                                    : Portuguese
Language                                 : Portuguese (PT)
Default                                  : No
Forced                                   : No

Text #27
ID                                       : 29
Format                                   : UTF-8
Codec ID                                 : S_TEXT/UTF8
Codec ID/Info                            : UTF-8 Plain Text
Duration                                 : 1 h 53 min
Bit rate                                 : 50 b/s
Frame rate                               : 0.121 FPS
Count of elements                        : 825
Stream size                              : 42.3 KiB (0%)
Title                                    : Russian
Language                                 : Russian
Default                                  : No
Forced                                   : No

Text #28
ID                                       : 30
Format                                   : UTF-8
Codec ID                                 : S_TEXT/UTF8
Codec ID/Info                            : UTF-8 Plain Text
Duration                                 : 1 h 53 min
Bit rate                                 : 27 b/s
Frame rate                               : 0.101 FPS
Count of elements                        : 689
Stream size                              : 22.6 KiB (0%)
Title                                    : Slovenian
Language                                 : Slovenian
Default                                  : No
Forced                                   : No

Text #29
ID                                       : 31
Format                                   : UTF-8
Codec ID                                 : S_TEXT/UTF8
Codec ID/Info                            : UTF-8 Plain Text
Duration                                 : 1 h 53 min
Bit rate                                 : 27 b/s
Frame rate                               : 0.111 FPS
Count of elements                        : 759
Stream size                              : 22.7 KiB (0%)
Title                                    : Swedish
Language                                 : Swedish
Default                                  : No
Forced                                   : No

Text #30
ID                                       : 32
Format                                   : UTF-8
Codec ID                                 : S_TEXT/UTF8
Codec ID/Info                            : UTF-8 Plain Text
Duration                                 : 1 h 53 min
Bit rate                                 : 74 b/s
Frame rate                               : 0.115 FPS
Count of elements                        : 780
Stream size                              : 62.3 KiB (0%)
Title                                    : Thai
Language                                 : Thai
Default                                  : No
Forced                                   : No

Text #31
ID                                       : 33
Format                                   : UTF-8
Codec ID                                 : S_TEXT/UTF8
Codec ID/Info                            : UTF-8 Plain Text
Duration                                 : 1 h 53 min
Bit rate                                 : 31 b/s
Frame rate                               : 0.114 FPS
Count of elements                        : 775
Stream size                              : 26.3 KiB (0%)
Title                                    : Turkish
Language                                 : Turkish
Default                                  : No
Forced                                   : No

Text #32
ID                                       : 34
Format                                   : UTF-8
Codec ID                                 : S_TEXT/UTF8
Codec ID/Info                            : UTF-8 Plain Text
Duration                                 : 1 h 53 min
Bit rate                                 : 30 b/s
Frame rate                               : 0.114 FPS
Count of elements                        : 778
Stream size                              : 25.5 KiB (0%)
Title                                    : Traditional, Mandarin Chinese
Language                                 : Chinese (Traditional)
Default                                  : No
Forced                                   : No