| 首页 | 高清电影 | 最新公告 | 高清播放机 | 代拷硬盘 | 会员专区 | 联系方式 | 付款方式 | 服务条款 | 设为首页 | 收藏本站 | 



查看影片 426-21-沙丘2 Dune 2沙丘:第二部(台)沙丘2024【4K】特效简繁英4字幕 mkv(21.7GB)[剧情动作科幻冒险 2024年 美国·加拿大]() 详细信息介绍
影片类型
动作 科幻 冒险 剧情 4K极致影音
影片属性
4K 电影
影片编号
426-21
IMDB评分
0
首映日期
影片片源
4K极致影音,欧美
文件格式
MKV
分辨率
3840*2160P
视频编码
音频编码
E-AC-3
容量大小
21.7GB
出品年代
2024
字幕
中文/多国
支持PS3
不支持PS3
碟数
1碟
更新日期
2024-4-9
人气
4
影片画质
对白语言
影片评分
备注信息
影片预览
影片简介

沙丘2/Dune 2/沙丘:第二部(台)/沙丘2024 | 特效简繁英4字幕


◎译  名 沙丘2/Dune 2/沙丘:第二部(台)/沙丘II/沙丘瀚战:第二章(港)
◎片  名 Dune: Part Two
◎年  代 2024
◎产  地 美国,加拿大
◎类  别 剧情 / 动作 / 科幻 / 冒险
◎语  言 英语
◎上映日期 2024-02-28(法国) / 2024-03-01(美国) / 2024-03-08(中国大陆)
◎IMDb评分  8.8/10 from 304221 users
◎IMDb链接  https://www.imdb.com/title/tt15239678/
◎豆瓣评分 8.2/10 from 364212 users
◎豆瓣链接 https://movie.douban.com/subject/35575567/
◎片  长 166分钟
◎导  演 丹尼斯·维伦纽瓦 Denis Villeneuve
◎编  剧 丹尼斯·维伦纽瓦 Denis Villeneuve / 乔·斯派茨 Jon Spaihts / 弗兰克·赫伯特 Frank Herbert
◎主  演 提莫西·查拉梅 Timothée Chalamet
       赞达亚 Zendaya
       丽贝卡·弗格森 Rebecca Ferguson
       哈维尔·巴登 Javier Bardem
       乔什·布洛林 Josh Brolin
       奥斯汀·巴特勒 Austin Butler
       弗洛伦丝·皮尤 Florence Pugh
       戴夫·巴蒂斯塔 Dave Bautista
       克里斯托弗·沃肯 Christopher Walken
       蕾雅·赛杜 Léa Seydoux
       斯特兰·斯卡斯加德 Stellan Skarsgård
       夏洛特·兰普林 Charlotte Rampling
       安雅·泰勒-乔伊 Anya Taylor-Joy
       索海拉·雅各布 Souheila Yacoub
       巴布斯·奥卢桑莫昆 Babs Olusanmokun
       袁之正 Roger Yuan
       艾莉森·霍尔斯特德 Alison Halstead
       朱西·梅里 Giusi Merli
       凯特·泰森 Kait Tenison
       塔拉·布雷思纳克 Tara Breathnach
        Akiko Hitomi
       安东·桑德斯 Anton Saunders
       特雷茜库根 Tracy Coogan
       阿伦·梅迪扎德 Alan Mehdizadeh
       伊莫拉·加斯帕尔 Imola Gáspár
       小彼得·斯托亚诺夫 Peter Sztojanov Jr.
       莫利·麦考恩 Molly Mcowan

◎简  介

《沙丘2》承接第一部剧情,讲述保罗·厄崔迪(提莫西·查拉梅 Timothée Chalamet 饰)被帕迪沙皇帝和哈克南人联手灭族后,在厄拉科斯星球遇到弗雷曼女战士契妮(赞达亚 Zendaya 饰)以及加入弗雷曼人后展开的传奇旅程。保罗与让他家破人亡的阴谋家们开战,同时面临着一生所爱与已知宇宙命运的两难选择。


預覽


General
Unique ID                      : 271555746431984429123355198683432914961 (0xCC4BBBFF2C3F8A1CEEC48D6385E09011)
Complete name                  : Dune.Part.Two.2024.REPACK.2160p.UPSCALE.WEB.HEVC.10Bit.AAC.2.0-R&H[DiY@DB].mkv
Format                        : Matroska
Format version                : Version 4
File size                      : 21.7 GiB
Duration                      : 2 h 45 min
Overall bit rate              : 18.8 Mb/s
Frame rate                    : 23.976 FPS
Movie name                    : Dune.Part.Two.2024.REPACK.2160p.UPSCALE.WEB.HEVC.10Bit.AAC.2.0-R&H
Encoded date                  : 2024-04-07 05:15:05 UTC
Writing application            : mkvmerge v82.0 ('I'm The President') 64-bit
Writing library                : libebml v1.4.5 + libmatroska v1.7.1 / Lavf60.20.100
VIDEOAI                        : Enhanced using ahq-12. Changed resolution to 3840x2160

Video
ID                            : 1
Format                        : HEVC
Format/Info                    : High Efficiency Video Coding
Format profile                : Main 10@L5@High
Codec ID                      : V_MPEGH/ISO/HEVC
Duration                      : 2 h 45 min
Bit rate                      : 18.6 Mb/s
Width                          : 3 840 pixels
Height                        : 2 160 pixels
Display aspect ratio          : 16:9
Frame rate mode                : Constant
Frame rate                    : 23.976 (24000/1001) FPS
Color space                    : YUV
Chroma subsampling            : 4:2:0
Bit depth                      : 10 bits
Bits/(Pixel*Frame)            : 0.093
Stream size                    : 21.5 GiB (99%)
Writing library                : Lavc60.37.100 hevc_nvenc
Language                      : English
Default                        : No
Forced                        : No
Color range                    : Limited
Color primaries                : BT.709
Transfer characteristics      : BT.709
Matrix coefficients            : BT.709

Audio
ID                            : 2
Format                        : AAC LC
Format/Info                    : Advanced Audio Codec Low Complexity
Codec ID                      : A_AAC-2
Duration                      : 2 h 45 min
Bit rate                      : 128 kb/s
Channel(s)                    : 2 channels
Channel layout                : L R
Sampling rate                  : 48.0 kHz
Frame rate                    : 46.875 FPS (1024 SPF)
Compression mode              : Lossy
Stream size                    : 152 MiB (1%)
Language                      : English
Default                        : Yes
Forced                        : No

Text #1
ID                            : 3
Format                        : PGS
Muxing mode                    : zlib
Codec ID                      : S_HDMV/PGS
Codec ID/Info                  : Picture based subtitle format used on BDs/HD-DVDs
Duration                      : 2 h 39 min
Bit rate                      : 13.8 kb/s
Frame rate                    : 0.294 FPS
Count of elements              : 2806
Stream size                    : 15.7 MiB (0%)
Title                          : 简体中文
Language                      : Chinese
Default                        : Yes
Forced                        : No

Text #2
ID                            : 4
Format                        : PGS
Muxing mode                    : zlib
Codec ID                      : S_HDMV/PGS
Codec ID/Info                  : Picture based subtitle format used on BDs/HD-DVDs
Duration                      : 2 h 39 min
Bit rate                      : 14.7 kb/s
Frame rate                    : 0.294 FPS
Count of elements              : 2806
Stream size                    : 16.7 MiB (0%)
Title                          : 繁体中文
Language                      : Chinese
Default                        : Yes
Forced                        : No

Text #3
ID                            : 5
Format                        : PGS
Muxing mode                    : zlib
Codec ID                      : S_HDMV/PGS
Codec ID/Info                  : Picture based subtitle format used on BDs/HD-DVDs
Duration                      : 2 h 39 min
Bit rate                      : 18.1 kb/s
Frame rate                    : 0.294 FPS
Count of elements              : 2807
Stream size                    : 20.6 MiB (0%)
Title                          : 简体中英
Language                      : Chinese
Default                        : Yes
Forced                        : No

Text #4
ID                            : 6
Format                        : PGS
Muxing mode                    : zlib
Codec ID                      : S_HDMV/PGS
Codec ID/Info                  : Picture based subtitle format used on BDs/HD-DVDs
Duration                      : 2 h 39 min
Bit rate                      : 18.9 kb/s
Frame rate                    : 0.294 FPS
Count of elements              : 2807
Stream size                    : 21.6 MiB (0%)
Title                          : 繁体中英
Language                      : Chinese
Default                        : Yes
Forced                        : No

Text #5
ID                            : 7
Format                        : UTF-8
Codec ID                      : S_TEXT/UTF8
Codec ID/Info                  : UTF-8 Plain Text
Duration                      : 2 h 36 min
Bit rate                      : 30 b/s
Frame rate                    : 0.129 FPS
Count of elements              : 1216
Stream size                    : 35.3 KiB (0%)
Language                      : Portuguese
Default                        : Yes
Forced                        : No