| 首页 | 高清电影 | 最新公告 | 高清播放机 | 代拷硬盘 | 会员专区 | 联系方式 | 付款方式 | 服务条款 | 设为首页 | 收藏本站 | 



查看影片 312-60-毒液2 毒魔血战大屠杀(港)猛毒2:血蜘蛛(台)【4K】[内封官译简繁字幕 简英双语特效繁英双语特效简英双语繁英双语] mkv(10.5GB)[动作科幻惊悚 2021年 美国]() 详细信息介绍
影片类型
动作 科幻 惊悚 4K极致影音
影片属性
4K 电影
影片编号
312-60
IMDB评分
0
首映日期
影片片源
4K极致影音,欧美
文件格式
MKV
分辨率
3840*2160P
视频编码
音频编码
杜比全景声TrueHD 7.1 Atmos
容量大小
10.5GB
出品年代
2021
字幕
中文/多国
支持PS3
不支持PS3
碟数
1碟
更新日期
2021-11-23
人气
1
影片画质
对白语言
影片评分
备注信息
影片预览
影片简介

毒液2/毒魔:血战大屠杀(港) | 导演:安迪·瑟金斯 | 主演:汤姆·哈迪 | 简英双语特效|繁英双语特效|简英双语|繁英双语|原生英文|官译繁中


◎译  名 毒液2/毒魔:血战大屠杀(港)/毒液:放纵屠杀/毒液:屠杀开始/毒液2:屠杀将至/毒液2:屠杀开始/猛毒2:血蜘蛛(台)/Venom 2
◎片  名 Venom: Let There Be Carnage
◎年  代 2021
◎产  地 美国
◎类  别 动作/科幻/惊悚
◎语  言 英语
◎上映日期 2021(中国大陆)/2021-10-01(美国)/2021-10(英国)
◎IMDb评分  6.3/10 from 71769 users
◎IMDb链接  https://www.imdb.com/title/tt7097896/
◎豆瓣评分 5.1/10 from 37559 users
◎豆瓣链接 https://douban.com/subject/30382416/
◎片  长 97分钟
◎导  演 安迪·瑟金斯 Andy Serkis
◎编  剧 凯莉·马塞尔 Kelly Marcel / 汤姆·哈迪 Tom Hardy
◎主  演 汤姆·哈迪 Tom Hardy
       伍迪·哈里森 Woody Harrelson
       米歇尔·威廉姆斯 Michelle Williams
       娜奥米·哈里斯 Naomie Harris
       瑞德·斯科特 Reid Scott
       斯蒂芬·格拉汉姆 Stephen Graham
       汤姆·赫兰德 Tom Holland
       里斯·谢尔史密斯 Reece Shearsmith
       肖恩·德兰尼 Sean Delaney
       佩吉·陆 Peggy Lu
       劳伦斯·斯佩尔曼 Laurence Spellman
       杰克·班戴拉 Jack Bandeira
       斯克鲁比斯·皮普 Scroobius Pip
       阿姆·阿勒卡迪 Amrou Al-Kadhi
       斯图尔特·亚历山大 Stewart Alexander
       克里斯托弗戈德温 Christopher Godwin
       格雷戈·洛基特 Greg Lockett
       桑尼·阿什本·瑟金斯 Sonny Ashbourne Serkis
       雷切尔·汉德肖 Rachel Handshaw
       小田部阿基 Akie Kotabe
       埃里克·西格蒙德森 Eric Sigmundsson
       何塞‧帕尔马 Jose Palma
       Rosie Marcel Rosie Marcel
       艾略特·凯博尔 Elliot Cable
       威廉·W·巴伯 William W. Barbour
       埃尔文·费利西达 Erwin Felicilda
       露丝·霍洛克斯 Ruth Horrocks
       约翰·洛巴托 John Lobato
       迪索·拉莫斯 Diezel Ramos
       迈克尔·安德鲁·里德 Michael Andrew Reed
       里克·理查森 Rick Richardson
       安珀·西耶娜 Amber Sienna
       艾蒂安·维克 Etienne Vick
       杰茜·维宁 Jessie Vinning
       中川翔子 Shôko Nakagawa

◎标  签 漫威 | 毒液 | 科幻 | 超级英雄 | 美国 | 动作 | 2021 | 漫画改编

◎简  介

  
  电影讲述了外星共生体“毒液”与宿主埃迪(汤姆·哈迪 饰)这对“最佳拍档”遇上致命反派共生体“卡内奇”(伍迪·哈里森 饰),超级英雄和邪恶反派的宿命之战即将开始。
  

◎获奖情况

  第7届豆瓣电影年度榜单  (2020)
  最值得期待的外语电影(提名)
  
  第6届豆瓣电影年度榜单  (2019)
  最值得期待的外语电影(提名)


引用

文件名: Venom Let There Be Carnage 2021 2160p AMZN WEB-DL HDR HEVC DDP 5.1 10bit V2-Hares.mkv
体   积: 10.6 GiB
时   长: 1 h 37 min
帧   率: 23.976 (24000/1001) FPS
分辨率: 3 840 pixels x 2 080 pixels(1)
比特率: 14.8 Mb/s
位   深: 10 bits
音   频: English E-AC-3 6 channels @640 kb/s (English)
字   幕: English UTF-8 原生英文对白
           English UTF-8 原生英文台本
           Chinese UTF-8 官译简中
           Chinese UTF-8 官译繁中
           Chinese PGS 简英双语
           Chinese PGS 繁英双语
           Chinese PGS 简英双语特效
           Chinese PGS 繁英双语特效


引用

General
Unique ID : 204849111197190184059525634686617483763 (0x9A1C80F4AF0B0E8A282E0C4DC68179F3)
Complete name : D:\Users\gzk\Desktop\encode\Venom Let There Be Carnage 2021 2160p AMZN WEB-DL HDR HEVC DDP 5.1 10bit-Hares\Venom Let There Be Carnage 2021 2160p AMZN WEB-DL HDR HEVC DDP 5.1 10bit V2-Hares.mkv
Format : Matroska
Format version : Version 4
File size : 10.6 GiB
Duration : 1 h 37 min
Overall bit rate : 15.6 Mb/s
Encoded date : UTC 2021-11-24 14:12:07
Writing application : mkvmerge v62.0.0 ('Apollo') 64-bit
Writing library : libebml v1.4.2 + libmatroska v1.6.4

Video
ID : 1
Format : HEVC
Format/Info : High Efficiency Video Coding
Format profile : Main 10@L5@Main
HDR format : SMPTE ST 2094 App 4, Version 1, HDR10+ Profile B compatible
Codec ID : V_MPEGH/ISO/HEVC
Duration : 1 h 37 min
Bit rate : 14.8 Mb/s
Width : 3 840 pixels
Height : 2 080 pixels
Display aspect ratio : 1.85:1
Frame rate mode : Constant
Frame rate : 23.976 (24000/1001) FPS
Color space : YUV
Chroma subsampling : 4:2:0
Bit depth : 10 bits
Bits/(Pixel*Frame) : 0.077
Stream size : 10.0 GiB (95%)
Language : English
Default : Yes
Forced : No
Color range : Limited
Color primaries : BT.2020
Transfer characteristics : PQ
Matrix coefficients : BT.2020 non-constant
Mastering display color primaries : BT.2020
Mastering display luminance : min: 0.0001 cd/m2, max: 1000 cd/m2
Maximum Content Light Level : 5681 cd/m2
Maximum Frame-Average Light Level : 522 cd/m2

Audio
ID : 2
Format : E-AC-3
Format/Info : Enhanced AC-3
Commercial name : Dolby Digital Plus
Codec ID : A_EAC3
Duration : 1 h 37 min
Bit rate mode : Constant
Bit rate : 640 kb/s
Channel(s) : 6 channels
Channel layout : L R C LFE Ls Rs
Sampling rate : 48.0 kHz
Frame rate : 31.250 FPS (1536 SPF)
Compression mode : Lossy
Stream size : 445 MiB (4%)
Title : English
Language : English
Service kind : Complete Main
Default : Yes
Forced : No

Text #1
ID : 3
Format : UTF-8
Codec ID : S_TEXT/UTF8
Codec ID/Info : UTF-8 Plain Text
Duration : 1 h 36 min
Bit rate : 56 b/s
Count of elements : 1658
Stream size  : 40.0 KiB (0%)
Title : 原生英文对白
Language : English
Default : No
Forced : No

Text #2
ID : 4
Format : UTF-8
Codec ID : S_TEXT/UTF8
Codec ID/Info : UTF-8 Plain Text
Duration : 1 h 36 min
Bit rate : 71 b/s
Count of elements : 1863
Stream size : 50.5 KiB (0%)
Title : 原生英文台本
Language : English
Default : No
Forced : No

Text #3
ID : 5
Format : UTF-8
Codec ID : S_TEXT/UTF8
Codec ID/Info : UTF-8 Plain Text
Duration : 1 h 36 min
Bit rate : 37 b/s
Count of elements : 1114
Stream size : 26.3 KiB (0%)
Title : 官译简中
Language : Chinese
Default : No
Forced : No

Text #4
ID : 6
Format : UTF-8
Codec ID : S_TEXT/UTF8
Codec ID/Info : UTF-8 Plain Text
Duration : 1 h 36 min
Bit rate : 37 b/s
Count of elements : 1114
Stream size : 26.3 KiB (0%)
Title : 官译繁中
Language : Chinese
Default : No
Forced : No

Text #5
ID : 7
Format : PGS
Muxing mode : zlib
Codec ID : S_HDMV/PGS
Codec ID/Info : Picture based subtitle format used on BDs/HD-DVDs
Duration : 1 h 27 min
Bit rate : 36.5 kb/s
Count of elements : 2203
Stream size : 22.9 MiB (0%)
Title : 简英双语
Language : Chinese
Default : No
Forced : No

Text #6
ID : 8
Format : PGS
Muxing mode : zlib
Codec ID : S_HDMV/PGS
Codec ID/Info : Picture based subtitle format used on BDs/HD-DVDs
Duration : 1 h 27 min
Bit rate : 36.8 kb/s
Count of elements : 2203
Stream size : 23.0 MiB (0%)
Title : 繁英双语
Language : Chinese
Default : No
Forced : No

Text #7
ID : 9
Format : PGS
Muxing mode : zlib
Codec ID : S_HDMV/PGS
Codec ID/Info  : Picture based subtitle format used on BDs/HD-DVDs
Duration : 1 h 28 min
Bit rate : 134 kb/s
Count of elements : 4402
Stream size : 85.3 MiB (1%)
Title : 简英双语特效
Language : Chinese
Default : Yes
Forced : No

Text #8
ID : 10
Format : PGS
Muxing mode : zlib
Codec ID : S_HDMV/PGS
Codec ID/Info : Picture based subtitle format used on BDs/HD-DVDs
Duration : 1 h 28 min
Bit rate : 135 kb/s
Count of elements : 4402
Stream size : 85.6 MiB (1%)
Title : 繁英双语特效
Language : Chinese
Default : No
Forced : No