| 首页 | 高清电影 | 最新公告 | 高清播放机 | 代拷硬盘 | 会员专区 | 联系方式 | 付款方式 | 服务条款 | 设为首页 | 收藏本站 | 



查看影片 271-18-特种部队:蛇眼起源 义勇群英:蛇眼复仇战(港)特种部队:蛇眼 特种部队:蛇眼之战 (台)蛇眼 【4K】+1080p mkv(19.4GB)[动作科幻冒险 2021年 加拿大·美国]() 详细信息介绍
影片类型
动作 科幻 冒险 4K极致影音
影片属性
4K 电影
影片编号
271-18
IMDB评分
0
首映日期
影片片源
4K极致影音,欧美
文件格式
MKV
分辨率
3840*2160P
视频编码
音频编码
杜比全景声TrueHD 7.1 Atmos
容量大小
19.4GB
出品年代
2021
字幕
中文
支持PS3
不支持PS3
碟数
2碟
更新日期
2021-8-19
人气
0
影片画质
对白语言
影片评分
备注信息
影片预览
影片简介

特种部队:蛇眼起源/义勇群英:蛇眼复仇战(港)/特种部队:蛇眼/特种部队:蛇眼之战 (台)/蛇眼 [SDR版本]

 


◎译  名 特种部队:蛇眼起源/Snake Eyes/义勇群英:蛇眼复仇战(港)/特种部队:蛇眼/特种部队:蛇眼之战 (台)/蛇眼
◎片  名 Snake Eyes: G.I. Joe Origins
◎年  代 2021
◎产  地 加拿大,美国
◎类  别 动作 / 科幻 / 冒险
◎语  言 英语
◎上映日期 2021-07-23(美国)
◎IMDb评分  5.7/10 from 6063 users
◎IMDb链接  https://www.imdb.com/title/tt8404256/
◎豆瓣评分 /10 from 0 users
◎豆瓣链接 https://movie.douban.com/subject/30396443/
◎片  长 121分钟
◎导  演 罗伯特·斯文克 Robert Schwentke
◎编  剧 埃文·斯彼里奥托普洛斯 Evan Spiliotopoulos / 乔·施雷普内尔 Joe Shrapnel / 安娜·沃特豪斯 Anna Waterhouse
◎主  演 亨利·戈尔丁 Henry Golding
       安德鲁·浩二 Andrew Koji
       安部春香 Haruka Abe
       平岳大 Takehiro Hira
       石田惠理 Eri Ishida
       伊科·乌艾斯 Iko Uwais
       彼得·门萨 Peter Mensah
       乌苏拉·科尔维罗 Úrsula Corberó
       萨玛拉·维文 Samara Weaving
       萨缪尔·芬齐 Samuel Finzi
       史蒂文·艾瑞克 Steven Allerick
       马克斯·阿奇博尔德 Max Archibald
       西蒙·钱 Simon Chin
       詹姆斯·廖 James Hiroyuki Liao
       谷垣健治 Kenji Tanigaki
       肖恩·O.罗伯茨 Sean O. Roberts
       贾森·戴 Jason Day
       Hugh Aodh O'Brien Hugh Aodh O'Brien
       迈克尔·盖恩斯 Michael Gaines

◎标  签 动作 | 特种部队 | 科幻 | 美国 | 2021 | 冒险 | 漫画改编 | 特工

◎简  介

  亨利·戈尔丁饰演一名因背负了复杂过去而隐忍的独行者,代号蛇眼。一次偶然,他救下了岚影一族的准接班人,从而被邀请加入他们在日本的组织。在那里,岚影一族不但教会了蛇眼如何成为一名忍者,也给了他一直想要的一个家。但当蛇眼过去的秘密被逐渐揭开,他的信誉以及对组织的忠诚也将受到考验,即便这会使他会失去最亲近的人的信任。特种部队原著中的经典角色也将在《特种部队:蛇眼起源》中一一亮相。
引用

General
Unique ID                                : 173635420051652033876049591229563713561 (0x82A0F72A3EFBCB2A9F69E17FA6EEB819)
Complete name                            : Snake.Eyes.G.I.Joe.Origins.2021.2160p.AMZN.WEB-DL.DDP5.1.Atmos.SDR.HEVC-CMRG.mkv
Format                                   : Matroska
Format version                           : Version 4 / Version 2
File size                                : 13.3 GiB
Duration                                 : 2 h 1 min
Overall bit rate                         : 15.7 Mb/s
Movie name                               : Snake.Eyes.G.I.Joe.Origins.2021.CMRG
Encoded date                             : UTC 2021-08-17 02:26:57
Writing application                      : mkvmerge v11.0.0 ('Alive') 64bit
Writing library                          : libebml v1.3.4 + libmatroska v1.4.5

Video
ID                                       : 1
Format                                   : HEVC
Format/Info                              : High Efficiency Video Coding
Format profile                           : Main@L5@Main
Codec ID                                 : V_MPEGH/ISO/HEVC
Duration                                 : 2 h 1 min
Bit rate                                 : 14.9 Mb/s
Width                                    : 3 840 pixels
Height                                   : 1 600 pixels
Display aspect ratio                     : 2.40:1
Frame rate mode                          : Constant
Frame rate                               : 23.976 (24000/1001) FPS
Color space                              : YUV
Chroma subsampling                       : 4:2:0
Bit depth                                : 8 bits
Bits/(Pixel*Frame)                       : 0.101
Stream size                              : 12.7 GiB (95%)
Default                                  : Yes
Forced                                   : No
Color range                              : Limited
Color primaries                          : BT.709
Transfer characteristics                 : BT.709
Matrix coefficients                      : BT.709

Audio
ID                                       : 2
Format                                   : E-AC-3
Format/Info                              : Enhanced Audio Coding 3
Format settings, Endianness              : Big
Codec ID                                 : A_EAC3
Duration                                 : 2 h 1 min
Bit rate mode                            : Constant
Bit rate                                 : 768 kb/s
Channel(s)                               : 6 channels
Channel positions                        : Front: L C R, Side: L R, LFE
Sampling rate                            : 48.0 kHz
Frame rate                               : 187.500 FPS (256 spf)
Compression mode                         : Lossy
Stream size                              : 667 MiB (5%)
Title                                    : English
Language                                 : English
Default                                  : Yes
Forced                                   : No

Text #1
ID                                       : 3
Format                                   : UTF-8
Codec ID                                 : S_TEXT/UTF8
Codec ID/Info                            : UTF-8 Plain Text
Duration                                 : 1 h 52 min
Bit rate                                 : 31 b/s
Count of elements                        : 978
Stream size                              : 25.7 KiB (0%)
Title                                    : English [SDH]
Language                                 : English
Default                                  : Yes
Forced                                   : No

Text #2
ID                                       : 4
Format                                   : UTF-8
Codec ID                                 : S_TEXT/UTF8
Codec ID/Info                            : UTF-8 Plain Text
Duration                                 : 1 h 52 min
Bit rate                                 : 27 b/s
Count of elements                        : 790
Stream size                              : 22.9 KiB (0%)
Title                                    : English
Language                                 : English
Default                                  : No
Forced                                   : No.

 

 

 

 

 

特种部队:蛇眼起源 / 义勇群英:蛇眼复仇战(港) / 特种部队:蛇眼之战 (台) / 特种部队:蛇眼 / 蛇眼 /

 

◎译  名 特种部队:蛇眼起源 / 义勇群英:蛇眼复仇战(港) / 特种部队:蛇眼之战 (台) / 特种部队:蛇眼 / 蛇眼 / Snake Eyes
◎片  名 Snake Eyes: G.I. Joe Origins
◎年  代 2021
◎产  地 加拿大 / 美国
◎类  别 动作 / 科幻 / 冒险
◎语  言 英语
◎上映日期 2021-07-23(美国)
◎IMDb评星  ★★★★★✦☆☆☆☆
◎IMDb评分  5.7/10 from 5,981 users
◎IMDb链接  https://www.imdb.com/title/tt8404256/
◎豆瓣链接 https://movie.douban.com/subject/30396443/
◎片  长 121分钟
◎导  演 罗伯特·斯文克 / Robert Schwentke
◎演  员 亨利·戈尔丁 / Henry Golding | 饰 Snake Eyes
      安德鲁·浩二 / Andrew Koji | 饰 Storm Shadow
      安部春香 / Haruka Abe | 饰 Akiko
      平岳大 / Takehiro Hira | 饰 Kenta
      石田惠理 / Eri Ishida | 饰 Sen
      伊科·乌艾斯 / Iko Uwais | 饰 Hard Master
      彼得·门萨 / Peter Mensah | 饰 Blind Master
      乌苏拉·科尔维罗 / Úrsula Corberó | 饰 The Baroness
      萨玛拉·维文 / Samara Weaving | 饰 Scarlett
      萨缪尔·芬齐 / Samuel Finzi | 饰 Augustine
      史蒂文·艾瑞克 / Steven Allerick | 饰 Father
      马克斯·阿奇博尔德 / Max Archibald | 饰 Young Snake Eyes
      西蒙·钱 / Simon Chin | 饰 Hama
      詹姆斯·廖 / James Hiroyuki Liao | 饰 Yasuzo
      谷垣健治 / Kenji Tanigaki | 饰 Yakuza with Eye Patch
      肖恩·O.罗伯茨 / Sean O. Roberts | 饰 Augustine's Hired Thugs
      贾森·戴 / Jason Day | 饰 Augustine's Hired Thugs
      Hugh Aodh O'Brien Hugh Aodh O'Brien | 饰 Ambulance Driver
      迈克尔·盖恩斯 / Michael Gaines | 饰 Police Driver
◎编  剧 埃文·斯彼里奥托普洛斯 / Evan Spiliotopoulos
      乔·施雷普内尔 / Joe Shrapnel
      安娜·沃特豪斯 / Anna Waterhouse
◎制  片  人 洛伦佐·迪·博纳文图拉 / Lorenzo di Bonaventura
      大卫·埃里森 / David Ellison
      杰夫·瓦克斯曼 / Jeff G. Waxman
      埃里克·豪萨姆 / Erik Howsam
      达娜·哥德伯格 / Dana Goldberg
      唐·格兰杰 / Don Granger
      布莱恩·戈德诺 / Brian Goldner
◎音  乐 马丁·托德沙罗 / Martin Todsharow
◎摄  影 波扬·巴泽里 / Bojan Bazelli

◎标  签 动作 | 特种部队 | 科幻 | 美国 | 2021 | 冒险 | 漫画改编 | 特工

◎简  介 

  亨利·戈尔丁饰演一名因背负了复杂过去而隐忍的独行者,代号蛇眼。一次偶然,他救下了岚影一族的准接班人,从而被邀请加入他们在日本的组织。在那里,岚影一族不但教会了蛇眼如何成为一名忍者,也给了他一直想要的一个家。但当蛇眼过去的秘密被逐渐揭开,他的信誉以及对组织的忠诚也将受到考验,即便这会使他会失去最亲近的人的信任。特种部队原著中的经典角色也将在《特种部队:蛇眼起源》中一一亮相。
引用

General
Unique ID                                : 214177940279094791594749653420363233899 (0xA1212BBD8D0F68A9A662AC1C9DD03A6B)
Complete name                            : Snake.Eyes.G.I.Joe.Origins.2021.1080p.AMZN.WEB-DL.DDP5.1.H264-CMRG.mkv
Format                                   : Matroska
Format version                           : Version 4
File size                                : 6.08 GiB
Duration                                 : 2 h 1 min
Overall bit rate                         : 7 164 kb/s
Movie name                               : Snake.Eyes.G.I.Joe.Origins.2021.CMRG
Encoded date                             : UTC 2021-08-16 23:34:36
Writing application                      : mkvmerge v11.0.0 ('Alive') 64bit
Writing library                          : libebml v1.3.4 + libmatroska v1.4.5

Video
ID                                       : 1
Format                                   : AVC
Format/Info                              : Advanced Video Codec
Format profile                           : High@L4
Format settings                          : CABAC / 4 Ref Frames
Format settings, CABAC                   : Yes
Format settings, RefFrames               : 4 frames
Codec ID                                 : V_MPEG4/ISO/AVC
Duration                                 : 2 h 1 min
Bit rate mode                            : Constant
Bit rate                                 : 6 522 kb/s
Nominal bit rate                         : 10 000 kb/s
Width                                    : 1 920 pixels
Height                                   : 800 pixels
Display aspect ratio                     : 2.40:1
Frame rate mode                          : Constant
Frame rate                               : 23.976 (24000/1001) FPS
Color space                              : YUV
Chroma subsampling                       : 4:2:0
Bit depth                                : 8 bits
Scan type                                : Progressive
Bits/(Pixel*Frame)                       : 0.177
Stream size                              : 5.53 GiB (91%)
Default                                  : Yes
Forced                                   : No
Color range                              : Limited
Color primaries                          : BT.709
Transfer characteristics                 : BT.709
Matrix coefficients                      : BT.709

Audio
ID                                       : 2
Format                                   : E-AC-3
Format/Info                              : Enhanced AC-3
Commercial name                          : Dolby Digital Plus
Codec ID                                 : A_EAC3
Duration                                 : 2 h 1 min
Bit rate mode                            : Constant
Bit rate                                 : 640 kb/s
Channel(s)                               : 6 channels
Channel layout                           : L R C LFE Ls Rs
Sampling rate                            : 48.0 kHz
Frame rate                               : 31.250 FPS (1536 SPF)
Compression mode                         : Lossy
Stream size                              : 556 MiB (9%)
Title                                    : English
Language                                 : English
Service kind                             : Complete Main
Default                                  : No
Forced                                   : No

Text #1
ID                                       : 3
Format                                   : UTF-8
Codec ID                                 : S_TEXT/UTF8
Codec ID/Info                            : UTF-8 Plain Text
Duration                                 : 1 h 17 min
Bit rate                                 : 0 b/s
Count of elements                        : 14
Stream size                              : 345 Bytes (0%)
Title                                    : English [Forced]
Language                                 : English
Default                                  : No
Forced                                   : Yes

Text #2
ID                                       : 4
Format                                   : UTF-8
Codec ID                                 : S_TEXT/UTF8
Codec ID/Info                            : UTF-8 Plain Text
Duration                                 : 1 h 52 min
Bit rate                                 : 31 b/s
Count of elements                        : 980
Stream size                              : 26.1 KiB (0%)
Title                                    : English [SDH]
Language                                 : English
Default                                  : No
Forced                                   : No

Text #3
ID                                       : 5
Format                                   : UTF-8
Codec ID                                 : S_TEXT/UTF8
Codec ID/Info                            : UTF-8 Plain Text
Duration                                 : 1 h 52 min
Bit rate                                 : 28 b/s
Count of elements                        : 804
Stream size                              : 23.2 KiB (0%)
Title                                    : English
Language                                 : English
Default                                  : No
Forced                                   : No

Text #4
ID                                       : 6
Format                                   : UTF-8
Codec ID                                 : S_TEXT/UTF8
Codec ID/Info                            : UTF-8 Plain Text
Duration                                 : 1 h 59 min
Bit rate                                 : 28 b/s
Count of elements                        : 794
Stream size                              : 24.9 KiB (0%)
Title                                    : French (Canada)
Language                                 : French
Default                                  : No
Forced                                   : No