| 首页 | 高清电影 | 最新公告 | 高清播放机 | 代拷硬盘 | 会员专区 | 联系方式 | 付款方式 | 服务条款 | 设为首页 | 收藏本站 | 



查看影片 271-16-第32届夏季奥林匹克运动会 2020东京奥运会开幕式 [8K+HEVC+HDR] mkv(134.0GB)[综艺 2021年 日本]() 详细信息介绍
影片类型
综艺 8K
影片属性
影片编号
271-16
IMDB评分
0
首映日期
影片片源
日韩
文件格式
MKV
分辨率
7680x4320
视频编码
音频编码
容量大小
134GB
出品年代
2021
字幕
-
支持PS3
不支持PS3
碟数
1碟
更新日期
2021-7-29
人气
0
影片画质
对白语言
影片评分
备注信息
影片预览
影片简介

2020东京奥运会开幕式 [8K+HEVC+HDR]

 

◎译  名 第32届夏季奥林匹克运动会/2021 Summer Olympics/2021年奥运会/The 2021 Tokyo Olympic Games/东京奥运会/第三十二回オリンピック競技大会
◎片  名 Tokyo 2021: Games of the XXXII Olympiad
◎年  代 2021
◎产  地 日本
◎类  别 运动
◎语  言 日语,英语,法语
◎上映日期 2021-07-23(日本)
◎IMDb评分  6.8/10 from 16 users
◎IMDb链接  https://www.imdb.com/title/tt7055646/
◎豆瓣评分 4.2/10 from 857 users
◎豆瓣链接 https://movie.douban.com/subject/30159469/
◎主  演 马龙 Long Ma
       刘诗雯 Shiwen Liu
       许昕 Xin Xu
       樊振东 Zhendong Fan
       伊藤美诚 Mima Ito
       石川佳纯 Kasumi Ishikawa
       丹羽孝希 Niwa Koki
       水谷隼 Jun Mizutani
       西蒙·拜尔斯 Simone Biles
       内村航平 Uchimura Kohei
       凯文·杜兰特 Kevin Durant
       凯文·乐福 Kevin Love
       德雷蒙德·格林 Draymond Green
       谌龙 Long Chen
       池江璃花子 Rikako Ikee
       朱婷 Ting Zhu
       袁心玥 Xinyue Yuan
       张常宁 Changning Zhang
       丁霞 Xia Ding
       郎平 Jane Lang
       汤姆·戴利 Tom Daley

◎标  签 日本 | 奥运会 | 体育 | 2021 | 运动 | 纪录片 | 2020 | CCTV奥运

◎简  介

  第32届夏季奥林匹克运动会,原定于2020年7月24日至8月9日在日本东京举行。受COVID-19疫情影响,推迟至2021年7月23日至8月8日,但仍采用“2020年奥运会”的名称。
引用

General
Unique ID                                : 10524187648516255628627261106020267396 (0x7EAE2831F3AAF2AE096C5CEF471B584)
Complete name                            : Summer Olympics Tokyo 2020 S01E01 Opening Ceremony 4320p HLG UHDTV AAC22.2 HEVC-TrollUHD.mkv
Format                                   : Matroska
Format version                           : Version 4
File size                                : 135 GiB
Duration                                 : 3 h 59 min
Overall bit rate                         : 80.8 Mb/s
Encoded date                             : UTC 2021-07-25 20:17:03
Writing application                      : mkvmerge v59.0.0 ('Shining Star') 64-bit
Writing library                          : libebml v1.4.2 + libmatroska v1.6.4

Video
ID                                       : 1
Format                                   : HEVC
Format/Info                              : High Efficiency Video Coding
Format profile                           : Main 10@L6.1@Main
Codec ID                                 : V_MPEGH/ISO/HEVC
Duration                                 : 3 h 59 min
Bit rate                                 : 79.0 Mb/s
Width                                    : 7 680 pixels
Height                                   : 4 320 pixels
Display aspect ratio                     : 16:9
Frame rate mode                          : Constant
Frame rate                               : 59.940 (60000/1001) FPS
Standard                                 : Component
Color space                              : YUV
Chroma subsampling                       : 4:2:0 (Type 2)
Bit depth                                : 10 bits
Bits/(Pixel*Frame)                       : 0.040
Stream size                              : 132 GiB (98%)
Default                                  : Yes
Forced                                   : No
Color range                              : Limited
Color primaries                          : BT.2020
Transfer characteristics                 : HLG
Matrix coefficients                      : BT.2020 non-constant

Audio #1
ID                                       : 2
Format                                   : AAC LC
Format/Info                              : Advanced Audio Codec Low Complexity
Codec ID                                 : A_AAC-2
Duration                                 : 3 h 59 min
Bit rate                                 : 1 462 kb/s
Channel(s)                               : 24 channels
Sampling rate                            : 48.0 kHz
Frame rate                               : 46.875 FPS (1024 SPF)
Compression mode                         : Lossy
Delay relative to video                  : 120 ms
Stream size                              : 2.44 GiB (2%)
Title                                    : 22.2
Default                                  : Yes
Forced                                   : No

Audio #2
ID                                       : 3
Format                                   : AAC LC
Format/Info                              : Advanced Audio Codec Low Complexity
Codec ID                                 : A_AAC-2
Duration                                 : 3 h 55 min
Bit rate                                 : 315 kb/s
Channel(s)                               : 2 channels
Channel(s)_Original                      : 6 channels
Channel layout                           : C L R Ls Rs LFE
Sampling rate                            : 48.0 kHz
Frame rate                               : 46.875 FPS (1024 SPF)
Compression mode                         : Lossy
Delay relative to video                  : 131 ms
Stream size                              : 529 MiB (0%)
Title                                    : 2.0
Default                                  : Yes
Forced                                   : No