| 首页 | 高清电影 | 最新公告 | 高清播放机 | 代拷硬盘 | 会员专区 | 联系方式 | 付款方式 | 服务条款 | 设为首页 | 收藏本站 | 



查看影片 271-10-悬崖之上【4K】高码版 [国语] [中英文字幕]+花絮 记录 mkv(18.6GB)[剧情动作悬疑 2021年 中国大陆·中国香港]() 详细信息介绍
影片类型
动作 悬疑 剧情 4K极致影音
影片属性
4K 电影
影片编号
271-10
IMDB评分
0
首映日期
影片片源
4K极致影音,港台,国产
文件格式
MKV
分辨率
3840*2160P
视频编码
音频编码
杜比全景声TrueHD 7.1 Atmos
容量大小
18.6GB
出品年代
2021
字幕
中文
支持PS3
不支持PS3
碟数
2碟
更新日期
2021-6-18
人气
1
影片画质
对白语言
国语
影片评分
备注信息
影片预览
影片简介

悬崖之上 *V2高码版* [国语] [中英文字幕]

 

◎译  名 Cliff Walkers / Impasse
◎片  名 悬崖之上
◎年  代 2021
◎产  地 中国大陆 / 中国香港
◎类  别 剧情 / 动作 / 悬疑
◎语  言 汉语普通话 / 英语
◎上映日期 2021-04-30(中国大陆)
◎IMDb评分  7.0/10 from 440 users
◎IMDb链接  https://www.imdb.com/title/tt11448076
◎豆瓣评分 7.6/10 from 385453 users
◎豆瓣链接 https://movie.douban.com/subject/32493124/
◎片  长 120分钟
◎导  演 张艺谋 Yimou Zhang
◎编  剧 全勇先 Yongxian Quan / 张艺谋 Yimou Zhang / 潘依然 Yiran Pan
◎主  演 张译 Yi Zhang
      于和伟 Hewei Yu
      秦海璐 Hailu Qin
      朱亚文 Yawen Zhu
      刘浩存 Haocun Liu
      倪大红 Dahong Ni
      李乃文 Naiwen Li
      余皑磊 Ailei Yu
      周晓凡 Xiaofan Zhou
      雷佳音 Jiayin Lei
      沙溢 Yi Sha
      韩昊霖 Haolin Han
      赵毅 Yi Zhao

◎简  介 

  上世纪三十年代,四位曾在苏联接受特训的共产党特工组成任务小队,回国执行代号为“乌特拉”的秘密行动。由于叛徒的出卖,他们从跳伞降落的第一刻起, 就已置身于敌人布下的罗网之中。同志能否脱身,任务能否完成,雪一直下,立于“悬崖之上”的行动小组面临严峻考验。

引用

General
Unique ID                      : 37137944857092465309748582412003457713 (0x1BF0820CC4AA4F2D95D8A1BFC0E63AB1)
Complete name                  : Cliff Walkers 2021 V2 WEB-DL 4K H265 Dolby Digital Plus with Dolby Atmos-Dave.mkv
Format                         : Matroska
Format version                 : Version 4
File size                      : 13.0 GiB
Duration                       : 2 h 0 min
Overall bit rate               : 15.5 Mb/s
Encoded date                   : UTC 2021-06-18 09:07:27
Writing application            : mkvmerge v19.0.0 ('Brave Captain') 64-bit
Writing library                : libebml v1.3.5 + libmatroska v1.4.8

Video
ID                             : 1
Format                         : HEVC
Format/Info                    : High Efficiency Video Coding
Format profile                 : Main@L5@High
Codec ID                       : V_MPEGH/ISO/HEVC
Duration                       : 2 h 0 min
Bit rate                       : 14.9 Mb/s
Width                          : 4 096 pixels
Height                         : 1 740 pixels
Display aspect ratio           : 2.35:1
Frame rate mode                : Constant
Frame rate                     : 25.000 FPS
Color space                    : YUV
Chroma subsampling             : 4:2:0
Bit depth                      : 8 bits
Bits/(Pixel*Frame)             : 0.084
Stream size                    : 12.5 GiB (96%)
Default                        : Yes
Forced                         : No

Audio #1
ID                             : 2
Format                         : E-AC-3 JOC
Format/Info                    : Enhanced AC-3 with Joint Object Coding
Commercial name                : Dolby Digital Plus with Dolby Atmos
Codec ID                       : A_EAC3
Duration                       : 2 h 0 min
Bit rate mode                  : Constant
Bit rate                       : 448 kb/s
Channel(s)                     : 6 channels
Channel layout                 : L R C LFE Ls Rs
Sampling rate                  : 48.0 kHz
Frame rate                     : 31.250 FPS (1536 SPF)
Compression mode               : Lossy
Stream size                    : 386 MiB (3%)
Language                       : Chinese
Service kind                   : Complete Main
Default                        : Yes
Forced                         : No
Complexity index               : 16
Number of dynamic objects      : 15
Bed channel count              : 1 channel
Bed channel configuration      : LFE

Audio #2
ID                             : 3
Format                         : AAC LC
Format/Info                    : Advanced Audio Codec Low Complexity
Codec ID                       : A_AAC-2
Duration                       : 2 h 0 min
Bit rate                       : 125 kb/s
Channel(s)                     : 2 channels
Channel layout                 : L R
Sampling rate                  : 48.0 kHz
Frame rate                     : 46.875 FPS (1024 SPF)
Compression mode               : Lossy
Stream size                    : 108 MiB (1%)
Language                       : Chinese
Default                        : No
Forced                         : No

 

 

 

 

[极:《悬崖之上》张艺谋电影纪录片] 全5集

 

◎译  名 Impasse / 《悬崖之上》电影纪录片 / 极 / 极:张艺谋《悬崖之上》电影幕后纪录片
◎片  名 极:《悬崖之上》张艺谋电影纪录片
◎年  代 2021
◎产  地 中国大陆
◎类  别 纪录片
◎语  言 汉语普通话
◎上映日期 2021-05-15(中国大陆)
◎豆瓣评分 8.3/10 from 1995 users
◎豆瓣链接 https://movie.douban.com/subject/35467456/
◎集  数 5
◎片  长 40分钟
◎导  演 戴琪 Qi Dai
◎主  演 张艺谋 Yimou Zhang
      张译 Yi Zhang
      于和伟 Hewei Yu
      秦海璐 Hailu Qin
      朱亚文 Yawen Zhu
      刘浩存 Haocun Liu
      倪大红 Dahong Ni
      李乃文 Naiwen Li
      余皑磊 Ailei Yu
      周晓凡 Xiaofan Zhou
      赵小丁 Xiaoding Zhao
      林木 Lin Mu
      陈敏正 Minzheng Chen
      王星会 Samson Sing Wun Wong
      杨江 Jiang Yang
      赵楠 Nan Zhao
      蔡奎光  Kuiguang Cai

◎简  介

  影片出产过程经历特殊疫情时期,配合国家抗疫政策要求,剧组成员勠力同心、共克时艰,电影幕后制作全程真实纪录。拍摄历经前期筹备、现场摄制与后期制作独家幕后历程,导演同演员、主创人员,从极致与真实的创作要求与艺术追求出发,配合电影《悬崖之上》谍战传奇、戏骨对决、致敬无名英雄、崇尚信仰力量的立意旨趣,渗透于类型解读、体裁践行与幕后创作事件,探赜索隐之路中,呈现电影从业人员对艺术创作与电影梦想,忙者自促的执着与热爱。

引用

General
Complete name                  : Impasse 2021 E01 WEB-DL 2160p 10bit H265 AAC-Dave.mp4
Format                         : MPEG-4
Format profile                 : Base Media
Codec ID                       : isom (isom/iso2/mp41)
File size                      : 1.55 GiB
Duration                       : 41 min 15 s
Overall bit rate mode          : Variable
Overall bit rate               : 5 363 kb/s
Writing application            : Lavf58.30.100

Video
ID                             : 1
Format                         : HEVC
Format/Info                    : High Efficiency Video Coding
Format profile                 : Main 10@L5@Main
Codec ID                       : hev1
Codec ID/Info                  : High Efficiency Video Coding
Duration                       : 41 min 15 s
Bit rate                       : 5 167 kb/s
Width                          : 3 840 pixels
Height                         : 2 072 pixels
Display aspect ratio           : 1.85:1
Frame rate mode                : Constant
Frame rate                     : 25.000 FPS
Color space                    : YUV
Chroma subsampling             : 4:2:0
Bit depth                      : 10 bits
Bits/(Pixel*Frame)             : 0.026
Stream size                    : 1.49 GiB (96%)
Color range                    : Limited
Color primaries                : BT.709
Transfer characteristics       : BT.709
Matrix coefficients            : BT.709
Codec configuration box        : hvcC

Audio
ID                             : 2
Format                         : AAC LC
Format/Info                    : Advanced Audio Codec Low Complexity
Codec ID                       : mp4a-40-2
Duration                       : 41 min 15 s
Bit rate mode                  : Variable
Bit rate                       : 192 kb/s
Maximum bit rate               : 206 kb/s
Channel(s)                     : 2 channels
Channel layout                 : L R
Sampling rate                  : 44.1 kHz
Frame rate                     : 43.066 FPS (1024 SPF)
Compression mode               : Lossy
Stream size                    : 55.9 MiB (4%)
Default                        : Yes
Alternate group                : 1